Blinkinell

- Blinkinell

REM GENRE Electronic
REM DATE 2007
PERFORMER "aka Mustermann for op3n.net"
TITLE "Offroad Vol.1"
FILE "op3n020.mp3" MP3
TRACK 01 AUDIO
TITLE "Antes de nada"
PERFORMER "Sr. Click"
INDEX 01 00:00:00
TRACK 02 AUDIO
TITLE "Wasting"
PERFORMER "Mikel Mendia"
INDEX 01 01:56:00
TRACK 03 AUDIO
TITLE "Impuestos"
PERFORMER Chuänchö
INDEX 01 05:06:00
TRACK 04 AUDIO
TITLE "Moonbase (D.Ment Remix)"
PERFORMER Soleil
INDEX 01 09:17:00
TRACK 05 AUDIO
TITLE "Moonbase (Soleil's Traumamix)"
PERFORMER Soleil
INDEX 01 14:30:00
TRACK 06 AUDIO
TITLE "Nepal"
PERFORMER "Sr. Click"
INDEX 01 18:29:00
TRACK 07 AUDIO
TITLE "Güar"
PERFORMER "Sr. Click"
INDEX 01 21:51:00
TRACK 08 AUDIO
TITLE "Retraso"
PERFORMER Chuänchö
INDEX 01 27:26:00
TRACK 09 AUDIO
TITLE "Coleóptero"
PERFORMER "Sr. Click"
INDEX 01 30:14:00
TRACK 10 AUDIO
TITLE "Supremacia"
PERFORMER "Sr. Click"
INDEX 01 35:05:00

work of another

gid-frequencies.mp3

venna__the_first_sound__by_tepannyaki-dboaech.jpg

chmod g+s

:)

TITLE "An Act Of Terrorism"
PERFORMER "Sampler Girl"
REM Year : 2004
REM Genre : Political
FILE "Sampler Girl - An Act Of Terrorism.mp3" MP3
TRACK 01 AUDIO
TITLE "Ghost Riders Speedway Law"
PERFORMER "Sampler Girl"
PREGAP 00:02:00
INDEX 01 00:00:00
TRACK 02 AUDIO
TITLE "Their Law"
PERFORMER "The Prodigy"
INDEX 01 01:26:30
TRACK 03 AUDIO
TITLE "We Want Your Soul"
PERFORMER "Adam Freeland"
INDEX 01 05:00:20
TRACK 04 AUDIO
TITLE "Music (Punk Rocks Mix)"
PERFORMER "Ils"
INDEX 01 10:49:40
TRACK 05 AUDIO
TITLE "The Revolution"
PERFORMER "BT"
INDEX 01 15:34:30
TRACK 06 AUDIO
TITLE "Lithium (Bushwacked Dubbed Garage Mix)"
PERFORMER "Nirvana Vs Aiwazz Vs Sampler Girl"
INDEX 01 19:17:00
TRACK 07 AUDIO
TITLE "Leave You Far Behind"
PERFORMER "Lunatic Calm"
INDEX 01 25:34:00
TRACK 08 AUDIO
TITLE "Mass Destruction"
PERFORMER "Faithless"
INDEX 01 30:16:00
TRACK 09 AUDIO
TITLE "Two Tribes (Extended Mix)"
PERFORMER "Frankie Goes To Hollywood"
INDEX 01 33:20:00
TRACK 10 AUDIO
TITLE "Wake Up (To Ari Fleischer's Lies)"
PERFORMER "Rage Against The Sampler Girl"
INDEX 01 41:52:10
TRACK 11 AUDIO
TITLE "We Are"
PERFORMER "Ana"
INDEX 01 46:52:00
TRACK 12 AUDIO
TITLE "Breakbeat (Samplers Noam Chomsky Dub)"
PERFORMER "Aphex Twin"
INDEX 01 50:23:00
TRACK 13 AUDIO
TITLE "Another Bush In The Wall (Sampler Dub)"
PERFORMER "Pink Floyd"
INDEX 01 54:34:15
TRACK 14 AUDIO
TITLE "Like This (y'all) (Untitled)"
PERFORMER "X-Ecutioners"
INDEX 01 59:19:65
TRACK 15 AUDIO
TITLE "Seven Noam Army"
PERFORMER "The White Sampler Girl"
INDEX 01 63:47:00
TRACK 16 AUDIO
TITLE "George W Bush Wake Up"
PERFORMER "Robot303"
INDEX 01 66:07:70

.gb

Decaying flag image https://wallpapercave.com/w/PSOQBcdMusic from Toast of London 1x03 Vanity Project
TWOC 2017

Created 7 months, 4 weeks ago.

5 videos

0 subscribers

121 views

Random stuff I've taken and used for personal things :) reuse is love